Рекомендуем:
Мать/андроид / Mother/Android (2021) WEB-DLRip-AVC | Jaskier

Мать/андроид / Mother/Android (2021) WEB-DLRip-AVC | Jaskier

/ Просмотров:  54 / Комментариев: 0
Пожаловаться
Смотреть трейлер Смотреть онлайн
Мать/андроид / Mother/Android (2021) WEB-DLRip-AVC | Jaskier


Информация о фильме
Название: Мать/андроид
Оригинальное название: Mother/Android
Год выпуска: 2021
Жанр: Фантастика, триллер, драма
Режиссер: Маттсон Томлин / Mattson Tomlin
В ролях: Хлоя Грейс Морец, Стивен Маркус Робертсон, Оскар Уолберг, Рауль Кастильо, Элджи Смит, Лиам Макнил, Оуэн Бурк, Кейт Аваллоне, Джаред Рейнфельдт, Киара Пикардо

О фильме:
Джорджия и Сэм пытаются покинуть страну, охваченную войной с искусственным интеллектом. Пара надеется достигнуть безопасности до родов Джорджии, для этого им придется пересечь территорию, полностью подвластную андроидам.



Выпущено: США, 6th & Idaho Productions, Miramax
Продолжительность: 01:50:00
Перевод: Профессиональный (многоголосый, закадровый) | Jaskier
Субтитры: Aнглийсике

Файл
Формат: Matroska
Качество: WEB-DLRip-AVC
Видео: 1024x428 at 23.976 fps, x264@L4.1, ~1506 kbps
Аудио: AC3, 6 ch, ~384 kbps - | Русский |
Формат субтитров: softsub (SRT)

***Релиз от: -=DoMiNo=-
[spoiler=M/I]x264 [info]: frame I:1062 Avg QP:13.48 size: 50074
x264 [info]: frame P:36869 Avg QP:16.94 size: 17447
x264 [info]: frame B:120319 Avg QP:18.73 size: 4520

General
Unique ID : 203294594122703743415991948329020064243 (0x98F11D58BD2138E705FB388D974481F3)
Complete name : I:Mother_Android.2021.MVO.WEB-DLRip.x264.mkv
Format : Matroska
Format version : Version 4
File size : 1.45 GiB
Duration : 1 h 50 min
Overall bit rate : 1 889 kb/s
Encoded date : UTC 2021-12-19 12:32:09
Writing application : mkvmerge v63.0.0 ('Everything') 64-bit
Writing library : libebml v1.4.2 + libmatroska v1.6.4
Cover : Yes
Attachments : cover.jpg / cover 2.jpg

Video
ID : 1
Format : AVC
Format/Info : Advanced Video Codec
Format profile : High@L4.1
Format settings : CABAC / 12 Ref Frames
Format settings, CABAC : Yes
Format settings, Reference : 12 frames
Codec ID : V_MPEG4/ISO/AVC
Duration : 1 h 50 min
Bit rate : 1 506 kb/s
Width : 1 024 pixels
Height : 428 pixels
Display aspect ratio : 2.40:1
Frame rate mode : Constant
Frame rate : 23.976 (24000/1001) FPS
Color space : YUV
Chroma subsampling : 4:2:0
Bit depth : 8 bits
Scan type : Progressive
Bits/(Pixel*Frame) : 0.143
Stream size : 1.16 GiB (80%)
Title : -=DoMiNo=-
Writing library : x264 core 164 r3079 d9a19f0
Encoding settings : cabac=1 / ref=12 / deblock=1:-2:-2 / analyse=0x3:0x133 / me=umh / subme=10 / psy=1 / psy_rd=1.05:0.15 / mixed_ref=1 / me_range=32 / chroma_me=1 / trellis=2 / 8x8dct=1 / cqm=0 / deadzone=21,11 / fast_pskip=0 / chroma_qp_offset=-3 / threads=13 / lookahead_threads=3 / sliced_threads=0 / nr=0 / decimate=0 / interlaced=0 / bluray_compat=0 / constrained_intra=0 / bframes=10 / b_pyramid=2 / b_adapt=2 / b_bias=0 / direct=3 / weightb=1 / open_gop=0 / weightp=2 / keyint=250 / keyint_min=23 / scenecut=40 / intra_refresh=0 / rc_lookahead=60 / rc=2pass / mbtree=0 / bitrate=1506 / ratetol=1.0 / qcomp=0.65 / qpmin=0 / qpmax=69 / qpstep=4 / cplxblur=20.0 / qblur=0.5 / vbv_maxrate=50000 / vbv_bufsize=62500 / nal_hrd=none / filler=0 / ip_ratio=1.40 / pb_ratio=1.30 / aq=3:0.80
Language : English
Default : Yes
Forced : No

Audio
ID : 2
Format : AC-3
Format/Info : Audio Coding 3
Commercial name : Dolby Digital
Codec ID : A_AC3
Duration : 1 h 50 min
Bit rate mode : Constant
Bit rate : 384 kb/s
Channel(s) : 6 channels
Channel layout : L R C LFE Ls Rs
Sampling rate : 48.0 kHz
Frame rate : 31.250 FPS (1536 SPF)
Compression mode : Lossy
Stream size : 302 MiB (20%)
Title : MVO_Jaskier
Language : Russian
Service kind : Complete Main
Default : Yes
Forced : No

Text
ID : 3
Format : UTF-8
Codec ID : S_TEXT/UTF8
Codec ID/Info : UTF-8 Plain Text
Duration : 1 h 43 min
Bit rate : 41 b/s
Count of elements : 1168
Stream size : 31.0 KiB (0%)
Language : English
Default : No
Forced : No
[/spoiler][spoiler=Скриншоты][/spoiler
торрент удален по просьбе правообладателей

Скачать торрент Мать/андроид / Mother/Android (2021) WEB-DLRip-AVC | Jaskier бесплатно

Трейлер
{search_torrents}
Комментарии 0
Комментариев пока нет. Стань первым!
Добавить комментарий
Кликните на изображение чтобы обновить код, если он неразборчив